<?xml version="1.0" standalone="no"?>
<!DOCTYPE svg PUBLIC "-//W3C//DTD SVG 1.1//EN" "http://www.w3.org/Graphics/SVG/1.1/DTD/svg11.dtd" >
<svg xmlns="http://www.w3.org/2000/svg">
<metadata>Generated by IcoMoon</metadata>
<defs>
<font id="icomoon" horiz-adv-x="1024">
<font-face units-per-em="1024" ascent="960" descent="-64" />
<missing-glyph horiz-adv-x="1024" />
<glyph unicode="&#x20;" horiz-adv-x="512" d="" />
<glyph unicode="&#xe900;" glyph-name="dashboard" d="M394.664 618.664h-320c-41.172 0-74.664 33.492-74.664 74.672v192c0 41.172 33.492 74.664 74.664 74.664h320c41.18 0 74.672-33.492 74.672-74.664v-192c0-41.18-33.492-74.672-74.672-74.672zM74.664 896c-5.883 0-10.664-4.781-10.664-10.664v-192c0-5.891 4.781-10.672 10.664-10.672h320c5.891 0 10.672 4.781 10.672 10.672v192c0 5.883-4.781 10.664-10.672 10.664zM394.664-64h-320c-41.172 0-74.664 33.492-74.664 74.664v448c0 41.18 33.492 74.672 74.664 74.672h320c41.18 0 74.672-33.492 74.672-74.672v-448c0-41.172-33.492-74.664-74.672-74.664zM74.664 469.336c-5.883 0-10.664-4.781-10.664-10.672v-448c0-5.883 4.781-10.664 10.664-10.664h320c5.891 0 10.672 4.781 10.672 10.664v448c0 5.891-4.781 10.672-10.672 10.672zM949.336-64h-320c-41.18 0-74.672 33.492-74.672 74.664v192c0 41.18 33.492 74.672 74.672 74.672h320c41.172 0 74.664-33.492 74.664-74.672v-192c0-41.172-33.492-74.664-74.664-74.664zM629.336 213.336c-5.891 0-10.672-4.781-10.672-10.672v-192c0-5.883 4.781-10.664 10.672-10.664h320c5.883 0 10.664 4.781 10.664 10.664v192c0 5.891-4.781 10.672-10.664 10.672zM949.336 362.664h-320c-41.18 0-74.672 33.492-74.672 74.672v448c0 41.172 33.492 74.664 74.672 74.664h320c41.172 0 74.664-33.492 74.664-74.664v-448c0-41.18-33.492-74.672-74.664-74.672zM629.336 896c-5.891 0-10.672-4.781-10.672-10.664v-448c0-5.891 4.781-10.672 10.672-10.672h320c5.883 0 10.664 4.781 10.664 10.672v448c0 5.883-4.781 10.664-10.664 10.664z" />
<glyph unicode="&#xe901;" glyph-name="files" d="M286 560h439.999c16.567 0 30.003-13.432 30.003-29.999s-13.436-29.999-30.003-29.999h-439.999c-16.568 0-30 13.431-30 29.999s13.432 29.999 30 29.999zM725.999 400h-439.999c-16.568 0-30-13.431-30-29.999s13.432-29.999 30-29.999h439.999c16.567 0 30.003 13.431 30.003 29.999s-13.436 29.999-30.003 29.999zM286 240h145.441c16.567 0 29.999-13.431 29.999-29.999s-13.431-29.999-29.999-29.999h-145.441c-16.568 0-30 13.431-30 29.999s13.432 29.999 30 29.999zM674.752 929.908l192.845-182.444c21.862-20.684 34.402-49.81 34.402-79.908v-621.557c0-60.655-49.344-109.999-109.999-109.999h-560c-60.654 0-110 49.344-110 109.999v804.001c0 60.654 49.346 110 110 110h367.155c28.237 0 55.083-10.686 75.597-30.092zM660.002 720h149.321l-159.322 150.728v-140.728c0-5.514 4.484-10 10.001-10zM232-4.002h560c27.571 0 50.001 22.434 50.001 50.001v614.001h-181.999c-38.601 0-70.003 31.402-70.003 70v170h-357.999c-27.57 0-50-22.43-50-50v-804.001c0-27.567 22.43-50.001 50-50.001z" />
<glyph unicode="&#xe902;" glyph-name="link" d="M593.469 491.044c-9.83 0-19.661 3.744-27.151 11.251-59.884 59.885-157.324 59.904-217.228 0-14.976-14.995-39.322-14.995-54.298 0-14.995 14.995-14.995 39.303 0 54.298 89.837 89.856 236.008 89.837 325.823 0 14.996-14.995 14.996-39.302 0-54.298-7.485-7.507-17.336-11.251-27.146-11.251zM566.318 271.99c-59.001 0-118.003 22.467-162.911 67.374-14.995 14.996-14.995 39.301 0 54.298 14.976 14.996 39.322 14.996 54.298 0 59.887-59.884 157.325-59.904 217.229 0 14.976 14.996 39.322 14.996 54.298 0 14.996-14.996 14.996-39.301 0-54.298-44.928-44.908-103.931-67.374-162.913-67.374zM702.065 328.131c-9.83 0-19.661 3.748-27.151 11.254-14.996 14.996-14.976 39.281 0.020 54.277l214.482 214.522c14.976 14.995 39.322 14.995 54.298 0 14.996-14.995 14.996-39.303 0-54.298l-214.482-214.522c-7.491-7.506-17.336-11.233-27.167-11.233zM378.965 5.033c-9.83 0-19.661 3.748-27.149 11.254-14.995 14.996-14.995 39.301 0 54.298l119.904 119.905c14.976 14.991 39.322 14.991 54.298 0 14.996-14.996 14.996-39.306 0-54.298l-119.905-119.905c-7.488-7.506-17.318-11.254-27.149-11.254zM107.439 276.562c-9.83 0-19.661 3.743-27.149 11.249-14.995 14.996-14.995 39.306 0 54.298l214.502 214.485c14.995 14.995 39.322 14.995 54.298 0 14.995-14.995 14.995-39.302 0-54.298l-214.502-214.485c-7.507-7.485-17.337-11.249-27.149-11.249zM525.133 694.238c-9.83 0-19.64 3.744-27.147 11.232-14.995 14.995-14.995 39.303 0 54.317l119.906 119.923c14.991 14.995 39.301 14.995 54.313 0 14.996-14.995 14.996-39.303 0-54.317l-119.9-119.923c-7.511-7.469-17.357-11.232-27.172-11.232zM243.202-49.956c-59.386 0-118.771 22.083-162.912 66.243-88.32 88.32-88.32 237.501 0 325.821 14.976 14.996 39.322 15.017 54.298 0.020 14.995-14.996 14.995-39.322 0-54.318-58.867-58.865-58.867-158.341 0-217.206 58.867-58.87 158.362-58.89 217.229-0.020 14.976 14.996 39.322 15.012 54.298 0.020 14.995-14.996 14.995-39.322 0-54.318-44.141-44.18-103.526-66.243-162.912-66.243zM916.567 542.635c-9.83 0-19.661 3.744-27.151 11.251-14.996 14.995-14.996 39.302 0 54.298 58.87 58.867 58.87 158.362 0 217.229-58.865 58.867-158.341 58.848-217.211-0.019-14.976-14.995-39.337-14.976-54.313 0.019-14.996 14.995-14.996 39.302 0 54.298 88.32 88.32 237.522 88.32 325.842 0s88.3-237.504-0.020-325.824c-7.506-7.488-17.316-11.251-27.146-11.251z" />
<glyph unicode="&#xe903;" glyph-name="logout" d="M706.005 627.731l-58.557-58.556 65.617-66.031h-339.294v-83.056h339.294l-65.617-65.617 58.557-58.972 166.114 166.115-166.114 166.116zM207.655 752.318h290.704v83.058h-290.704c-45.682 0-83.058-37.376-83.058-83.058v-581.407c0-45.681 37.377-83.057 83.058-83.057h290.704v83.057h-290.704v581.407z" />
<glyph unicode="&#xe904;" glyph-name="qrcode" d="M46.546 587.636c-27.927 0-46.546 18.619-46.546 46.546v186.182c0 79.127 60.509 139.636 139.636 139.636h186.182c27.927 0 46.546-18.619 46.546-46.546s-18.619-46.546-46.546-46.546h-186.182c-27.927 0-46.546-18.619-46.546-46.546v-186.182c0.002-27.925-18.617-46.544-46.544-46.544zM977.455 587.636c-27.93 0-46.545 18.619-46.545 46.546v186.182c0 27.927-18.62 46.546-46.549 46.546h-186.18c-27.925 0-46.545 18.618-46.545 46.546s18.62 46.544 46.545 46.544h186.18c79.13 0 139.639-60.509 139.639-139.636v-186.182c0-27.927-18.62-46.546-46.545-46.546zM325.818-64h-186.182c-79.127 0-139.636 60.51-139.636 139.635v186.18c0 27.93 18.619 46.549 46.546 46.549s46.546-18.62 46.546-46.549v-186.18c0-27.925 18.618-46.545 46.546-46.545h186.182c27.927 0 46.546-18.62 46.546-46.545-0.002-27.925-18.621-46.545-46.548-46.545zM884.365-64h-186.18c-27.93 0-46.549 18.62-46.549 46.545 0 27.93 18.62 46.545 46.549 46.545h186.18c27.925 0 46.545 18.62 46.545 46.549v186.18c0 27.925 18.62 46.545 46.545 46.545 27.93 0 46.545-18.62 46.545-46.545v-186.18c0-79.13-60.51-139.639-139.635-139.639zM418.909 494.545h-186.182c-27.927 0-46.546 18.62-46.546 46.546v186.182c0 27.927 18.619 46.546 46.546 46.546h186.182c27.926 0 46.546-18.619 46.546-46.546v-186.182c0-27.926-18.62-46.546-46.546-46.546zM279.273 587.637h93.092v93.091h-93.092v-93.091zM418.909 122.18h-186.182c-27.927 0-46.546 18.62-46.546 46.549v186.18c0 27.925 18.619 46.545 46.546 46.545h186.182c27.926 0 46.546-18.62 46.546-46.545v-186.18c0-27.93-18.62-46.549-46.546-46.549zM279.273 215.275h93.092v93.090h-93.092v-93.090zM791.27 494.545h-186.18c-27.925 0-46.545 18.62-46.545 46.546v186.182c0 27.927 18.62 46.546 46.545 46.546h186.18c27.93 0 46.549-18.619 46.549-46.546v-186.182c0-27.926-18.62-46.546-46.549-46.546zM651.635 587.637h93.094v93.091h-93.094v-93.091zM605.090 261.82c-27.925 0-46.545 18.62-46.545 46.545v46.545c0 27.93 18.62 46.545 46.545 46.545 27.93 0 46.545-18.615 46.545-46.545v-46.545c0-27.93-18.615-46.545-46.545-46.545zM791.275 308.365h-46.549c-27.925 0-46.545 18.615-46.545 46.545 0 27.925 18.62 46.545 46.545 46.545h46.549c27.925 0 46.545-18.62 46.545-46.545 0-27.93-18.62-46.545-46.545-46.545zM791.275 122.18h-139.639c-27.925 0-46.545 18.62-46.545 46.545 0 27.93 18.62 46.549 46.545 46.549h139.639c27.925 0 46.545-18.62 46.545-46.549 0-27.925-18.62-46.545-46.545-46.545z" />
<glyph unicode="&#xe905;" glyph-name="change-password" d="M639.949 543.988h-31.996v63.995c0 70.586-57.404 127.99-127.991 127.99s-127.989-57.403-127.989-127.99v-63.995h-31.998c-17.662 0-31.997-14.333-31.997-31.997v-255.979c0-17.664 14.335-32 31.997-32h319.974c17.664 0 32 14.336 32 32v255.979c0 17.664-14.336 31.997-32 31.997zM415.968 607.983c0 35.261 28.67 63.995 63.994 63.995 35.328 0 63.996-28.734 63.996-63.995v-63.995h-127.99v63.995zM607.953 288.009h-255.98v191.983h255.98v-191.983zM1003.891 637.677c-16.448 6.592-35.072-1.408-41.536-17.854l-19.132-47.868c-54.972 204.72-241.519 356.004-463.262 356.004-264.682 0-479.962-215.279-479.962-479.963s215.279-479.962 479.962-479.962c128.183 0 248.687 49.916 339.43 140.595 12.48 12.48 12.48 32.768 0 45.244-12.48 12.48-32.764 12.48-45.244 0-78.652-78.583-183.155-121.843-294.187-121.843-229.357 0-415.967 186.607-415.967 415.966s186.609 415.968 415.967 415.968c199.731 0 366.95-141.557 406.818-329.574l-64.188 64.251c-12.48 12.479-32.764 12.479-45.244 0s-12.48-32.765 0-45.245l127.987-127.992c0.704-0.704 1.664-0.96 2.432-1.6 2.432-2.048 4.928-4.028 7.872-5.244 3.84-1.728 8.064-2.56 12.288-2.56 2.112 0 4.288 0.192 6.464 0.64 0.896 0.192 1.536 0.896 2.368 1.152 3.264 0.96 6.208 2.432 8.96 4.284 1.216 0.832 2.432 1.408 3.52 2.368 3.52 3.2 6.464 6.976 8.316 11.456 0 0 0.064 0.128 0.128 0.192l63.996 159.988c6.592 16.383-1.344 35.005-17.788 41.597z" />
<glyph unicode="&#xe906;" glyph-name="info" d="M580.422 238.545c-10.468-0.977-20.978 1.387-30.022 6.749-6.609 6.786-9.775 16.202-8.611 25.6 0.247 7.824 1.178 15.611 2.793 23.273 1.564 8.788 3.579 17.487 6.051 26.065l27.462 94.487c2.83 9.328 4.706 18.921 5.585 28.63 0 10.468 1.396 17.687 1.396 21.872 0.582 18.669-7.387 36.58-21.644 48.642-17.538 13.464-39.377 20.082-61.44 18.618-15.811-0.238-31.497-2.826-46.547-7.68-16.446-5.12-33.746-11.248-51.898-18.386l-7.912-30.721c5.352 1.862 11.87 3.956 19.316 6.284 7.104 2.104 14.468 3.202 21.876 3.258 10.392 1.126 20.852-1.424 29.557-7.215 5.911-7.052 8.685-16.216 7.68-25.367-0.028-7.824-0.884-15.625-2.56-23.273-1.634-8.145-3.724-16.752-6.285-25.828l-27.694-94.953c-2.232-8.825-4.018-17.757-5.352-26.764-1.088-7.713-1.632-15.486-1.63-23.273-0.114-18.795 8.48-36.585 23.272-48.175 17.806-13.675 39.962-20.452 62.369-19.084 15.784-0.326 31.507 1.955 46.545 6.749 13.191 4.501 30.799 10.938 52.834 19.316l7.447 29.324c-5.967-2.476-12.116-4.496-18.385-6.051-7.931-1.811-16.077-2.513-24.204-2.099zM609.513 686.546c-12.665 11.632-29.356 17.89-46.545 17.454-17.185 0.388-33.857-5.864-46.545-17.454-23.268-20.060-25.865-55.182-5.8-78.448 1.787-2.074 3.724-4.012 5.8-5.8 26.503-23.706 66.588-23.706 93.086 0 23.268 20.258 25.702 55.538 5.446 78.802-1.685 1.938-3.505 3.758-5.441 5.446zM512 960c-282.77 0-512-229.23-512-512 0-282.768 229.23-512 512-512 282.768 0 512 229.232 512 512 0 282.77-229.232 512-512 512zM512-17.455c-257.064 0-465.454 208.389-465.454 465.455 0 257.064 208.39 465.454 465.454 465.454 257.066 0 465.455-208.39 465.455-465.454 0-257.066-208.389-465.455-465.455-465.455z" />
<glyph unicode="&#xe907;" glyph-name="link1" horiz-adv-x="960" d="M582.399 550.405c-77.44 77.44-208.373 74.507-292.266-9.44-74.88-74.88-132.587-132.533-207.414-207.413-83.946-83.894-86.88-214.826-9.44-292.266s208.374-74.509 292.267 9.44c31.893 31.891 103.733 103.68 103.733 103.68 15.574 15.622 15.574 40.96 0 56.582-15.626 15.629-40.96 15.629-56.586 0l-103.734-103.731c-51.466-51.469-131.573-56.909-179.093-9.389s-42.080 127.629 9.387 179.098l207.413 207.412c51.52 51.52 131.627 56.96 179.147 9.44 15.626-15.573 40.96-15.573 56.586 0 15.627 15.627 15.627 40.96 0 56.587zM374.986 342.992c37.493-37.494 88.373-58.614 141.387-58.614 53.066 0 103.946 21.12 141.438 58.614 79.258 79.253 147.040 146.986 226.298 226.24 37.491 37.546 58.56 88.426 58.56 141.44 0 53.066-21.069 103.946-58.56 141.44-37.498 37.493-88.378 58.56-141.44 58.56-53.018 0-103.896-21.067-141.443-58.56-34.187-34.24-73.333-73.387-113.12-113.174-15.627-15.626-15.627-40.96 0-56.586 15.573-15.574 40.96-15.574 56.533 0l113.172 113.173c22.509 22.507 53.018 35.147 84.858 35.147s62.342-12.64 84.851-35.147c22.509-22.507 35.149-53.013 35.149-84.853s-12.64-62.347-35.149-84.854l-226.294-226.293c-22.453-22.453-53.013-35.147-84.853-35.147-31.787 0-62.347 12.694-84.854 35.147-15.573 15.627-40.906 15.627-56.533 0-15.627-15.573-15.627-40.907 0-56.533z" />
<glyph unicode="&#xe908;" glyph-name="mail" horiz-adv-x="1317" d="M41.143-4.571h1234.286v905.143h-1234.286v-905.143zM123.429 77.714v546.25l534.857-305.642 534.857 305.642v-546.25h-1069.714zM1193.143 818.286v-99.558l-534.857-305.622-534.857 305.622v99.558h1069.714z" />
<glyph unicode="&#xe909;" glyph-name="menu-line" d="M0 886.857c0 19.399 7.706 38.003 21.423 51.72s32.321 21.423 51.72 21.423h877.714c19.397 0 38.005-7.706 51.719-21.423s21.424-32.321 21.424-51.72c0-19.399-7.709-38.003-21.424-51.72s-32.322-21.423-51.719-21.423h-877.714c-19.399 0-38.003 7.706-51.72 21.423s-21.423 32.321-21.423 51.72zM0 594.286c0 19.399 7.706 38.003 21.423 51.72s32.321 21.423 51.72 21.423h877.714c19.397 0 38.005-7.706 51.719-21.423s21.424-32.321 21.424-51.72c0-19.399-7.709-38.003-21.424-51.72s-32.322-21.423-51.719-21.423h-877.714c-19.399 0-38.003 7.706-51.72 21.423s-21.423 32.321-21.423 51.72zM0 301.714c0 19.397 7.706 38.005 21.423 51.719s32.321 21.424 51.72 21.424h877.714c19.397 0 38.005-7.709 51.719-21.424s21.424-32.322 21.424-51.719c0-19.397-7.709-38.005-21.424-51.719s-32.322-21.424-51.719-21.424h-877.714c-19.399 0-38.003 7.709-51.72 21.424s-21.423 32.322-21.423 51.719zM0 9.143c0 19.397 7.706 38.005 21.423 51.719s32.321 21.424 51.72 21.424h877.714c19.397 0 38.005-7.709 51.719-21.424s21.424-32.322 21.424-51.719c0-19.397-7.709-38.005-21.424-51.719s-32.322-21.424-51.719-21.424h-877.714c-19.399 0-38.003 7.709-51.72 21.424s-21.423 32.322-21.423 51.719z" />
<glyph unicode="&#xe90a;" glyph-name="more" horiz-adv-x="256" d="M128.004 732.443c62.838 0 113.779 50.94 113.779 113.779s-50.94 113.779-113.779 113.779c-62.838 0-113.779-50.94-113.779-113.779s50.94-113.779 113.779-113.779zM128.004 334.223c62.838 0 113.779 50.939 113.779 113.777s-50.94 113.779-113.779 113.779c-62.838 0-113.779-50.94-113.779-113.779s50.94-113.777 113.779-113.777zM128.004-64c62.838 0 113.779 50.939 113.779 113.777s-50.94 113.782-113.779 113.782c-62.838 0-113.779-50.944-113.779-113.782s50.94-113.777 113.779-113.777z" />
<glyph unicode="&#xe90b;" glyph-name="move" horiz-adv-x="1081" d="M699.108 124.894c2.583-6.525 3.197-13.659 1.775-20.531-1.422-6.866-4.818-13.17-9.774-18.136l-125.332-125.776c-6.795-6.571-15.879-10.246-25.333-10.246s-18.539 3.675-25.333 10.246l-125.334 125.776c-5.024 4.949-8.462 11.275-9.881 18.182s-0.75 14.080 1.917 20.605c2.667 6.525 7.214 12.112 13.067 16.048 5.849 3.937 12.736 6.042 19.787 6.053h90.222v158.669c0 9.432 3.747 18.472 10.414 25.139s15.712 10.416 25.141 10.416c9.429 0 18.475-3.749 25.141-10.416s10.415-15.707 10.415-25.139v-158.669h90.22c7.043-0.131 13.898-2.293 19.735-6.235 5.837-3.948 10.405-9.5 13.153-15.986zM414.665 748.894h90.222v-158.665c0-9.429 3.747-18.475 10.414-25.141 6.667-6.67 15.712-10.414 25.141-10.414s18.475 3.744 25.141 10.414c6.666 6.667 10.415 15.712 10.415 25.141v158.665h90.22c7.054 0.012 13.938 2.12 19.786 6.055s10.399 9.521 13.067 16.047c2.668 6.526 3.334 13.698 1.917 20.605s-4.858 13.235-9.882 18.182l-125.332 125.778c-6.795 6.571-15.879 10.245-25.333 10.245s-18.539-3.674-25.333-10.245l-125.334-125.778c-5.024-4.946-8.462-11.275-9.881-18.182s-0.75-14.078 1.917-20.605c2.667-6.526 7.214-12.112 13.067-16.047 5.849-3.936 12.736-6.043 19.787-6.055zM398.221 412.451c9.429 0 18.475 3.744 25.141 10.414 6.666 6.667 10.414 15.712 10.414 25.141s-3.748 18.471-10.414 25.141c-6.667 6.667-15.712 10.415-25.141 10.415h-158.667v90.222c-0.012 7.051-2.119 13.938-6.055 19.787s-9.521 10.396-16.047 13.066c-6.526 2.667-13.698 3.335-20.605 1.917s-13.235-4.857-18.182-9.881l-125.778-125.333c-6.677-6.741-10.422-15.847-10.422-25.333 0-9.49 3.745-18.592 10.422-25.334l125.778-125.331c3.304-3.374 7.245-6.053 11.594-7.885s9.020-2.776 13.739-2.782c4.578-0.017 9.112 0.893 13.333 2.662 6.487 2.753 12.038 7.322 15.982 13.153 3.944 5.842 6.112 12.698 6.241 19.74v90.221h158.667zM1027.999 473.339l-125.776 125.333c-4.949 5.024-11.275 8.462-18.187 9.881-6.901 1.419-14.074 0.75-20.605-1.917-6.519-2.67-12.106-7.217-16.043-13.066s-6.047-12.736-6.059-19.787v-90.222h-158.663c-9.432 0-18.478-3.748-25.145-10.415-6.662-6.67-10.411-15.712-10.411-25.141s3.749-18.475 10.411-25.141c6.667-6.67 15.713-10.414 25.145-10.414h158.663v-90.221c0.131-7.043 2.298-13.898 6.241-19.74 3.942-5.831 9.5-10.399 15.986-13.153 4.221-1.769 8.75-2.679 13.329-2.662 4.722 0.006 9.392 0.95 13.739 2.782 4.352 1.832 8.294 4.511 11.6 7.885l125.776 125.331c6.679 6.742 10.422 15.844 10.422 25.334 0 9.486-3.743 18.592-10.422 25.333z" />
<glyph unicode="&#xe90c;" glyph-name="phone" d="M961.121 236.989c-1.695 1.408-193.347 138.563-245.345 129.572-24.991-4.419-39.296-21.443-67.937-55.583-4.608-5.504-15.713-18.657-24.284-28.037-18.104 5.898-35.758 13.087-52.833 21.504-88.144 42.916-159.362 114.13-202.273 202.275-8.42 17.074-15.607 34.73-21.504 52.832 9.408 8.608 22.592 19.712 28.224 24.448 33.952 28.48 50.976 42.784 55.392 67.808 9.056 51.808-128.16 243.616-129.568 245.344-6.249 8.862-14.387 16.226-23.828 21.561s-19.949 8.507-30.764 9.287c-55.616 0-214.4-205.952-214.4-240.672 0-2.016 2.912-206.944 255.616-463.999 256.768-252.416 461.696-255.329 463.713-255.329 34.719 0 240.671 158.787 240.671 214.4-0.778 10.819-3.953 21.33-9.293 30.771-5.345 9.441-12.718 17.577-21.586 23.818zM747.807 32.189c-27.965 2.304-199.936 24.996-414.943 236.227-212.32 216.16-234.432 388.608-236.64 415.328 41.945 65.836 92.601 125.695 150.592 177.952 1.28-1.28 2.976-3.2 5.152-5.696 44.474-60.711 82.786-125.705 114.368-194.016-10.27-10.332-21.125-20.066-32.512-29.152-17.658-13.454-33.872-28.704-48.384-45.504l-7.776-10.88 2.303-13.152c6.772-29.335 17.144-57.721 30.88-84.512 49.212-101.056 130.872-182.705 231.933-231.903 26.788-13.757 55.173-24.141 84.516-30.915l13.148-2.304 10.885 7.777c16.86 14.577 32.174 30.853 45.691 48.579 10.020 11.965 23.429 27.935 28.483 32.445 68.506-31.549 133.663-69.908 194.499-114.493 2.652-2.243 4.511-3.968 5.755-5.089-52.244-58.010-112.108-108.677-177.951-150.625v-0.067z" />
<glyph unicode="&#xe90d;" glyph-name="rename" horiz-adv-x="1536" d="M1499.429 161.331v573.338h-300.003v136.188h94.288v85.714h-274.286v-85.714h94.288v-136.188h-1077.146v-573.338h1077.146v-136.185h-94.288v-85.716h274.286v85.716h-94.288v136.185h300.003zM1413.712 648.954v-401.905h-214.287v158.094h81.196v85.715h-81.196v158.097h214.287zM122.286 247.049v401.905h991.431v-158.097h-858.334v-85.715h858.334v-158.094h-991.431z" />
<glyph unicode="&#xe90e;" glyph-name="search" d="M1014.298-8.288l-264.384 260.154c69.235 75.219 111.776 174.698 111.776 284.163-0.038 234.168-192.915 423.971-430.857 423.971-237.944 0-430.821-189.804-430.821-423.971 0-234.166 192.877-423.971 430.821-423.971 102.808 0 197.101 35.558 271.171 94.682l265.402-261.184c12.934-12.742 33.926-12.742 46.861 0 12.96 12.736 12.96 33.414 0.032 46.157zM430.833 177.286c-201.327 0-364.533 160.615-364.533 358.742s163.206 358.74 364.533 358.74c201.328 0 364.534-160.613 364.534-358.74s-163.206-358.742-364.534-358.742z" />
<glyph unicode="&#xe90f;" glyph-name="share" d="M811.998 295.999c-59.278 0-111.519-29.161-144.333-73.506l-283.685 145.26c4.71 16.054 8.020 32.691 8.020 50.248 0 23.812-4.882 46.45-13.316 67.272l296.889 178.656c33.041-38.776 81.607-63.928 136.425-63.928 99.26 0 180.002 80.742 180.002 180s-80.742 180-180.002 180c-99.254 0-179.996-80.742-179.996-180 0-22.874 4.71-44.572 12.521-64.716l-297.773-179.18c-33.011 37.624-80.876 61.896-134.75 61.896-99.258 0-180-80.742-180-180s80.742-180 180-180c60.26 0 113.382 30.020 146.070 75.611l282.755-144.788c-5.211-16.811-8.823-34.321-8.823-52.821 0-99.26 80.742-180.002 179.996-180.002 99.26 0 180.002 80.742 180.002 180.002 0 99.254-80.742 179.996-180.002 179.996z" />
<glyph unicode="&#xe910;" glyph-name="sms" d="M701.656 959.056h-379.262c-209.351 0-320-110.649-320-319.977l-0.047-237.037c0-266.481 122.453-320.025 320-320.025h23.565c3.568-0.757 6.892-2.389 9.676-4.745l71.111-94.817c9.395-14.006 22.092-25.481 36.973-33.417s31.486-12.089 48.352-12.089c16.865 0 33.47 4.153 48.351 12.089s27.578 19.41 36.97 33.417l71.162 94.839c1.098 1.468 2.52 2.662 4.164 3.482 1.638 0.819 3.447 1.246 5.279 1.24h23.654c209.351 0 320 110.649 320 319.978l0.051 237.037c0 209.353-110.649 320.023-320 320.023zM950.494 401.995c0-169.792-79.076-248.867-248.889-248.867h-23.654c-12.868-0.028-25.554-3.038-37.069-8.795-11.509-5.751-21.532-14.097-29.275-24.377l-71.111-94.811c-2.867-5.023-7.011-9.193-12.012-12.1-5-2.901-10.679-4.432-16.461-4.432s-11.46 1.53-16.461 4.432c-5 2.907-9.144 7.077-12.011 12.1l-71.111 94.811c-7.983 10.018-18.054 18.176-29.512 23.905s-24.026 8.892-36.831 9.267h-23.751c-175.51 0-248.889 34.583-248.889 248.914l0.047 237.037c0 169.791 79.076 248.866 248.889 248.866h379.262c169.813 0 248.889-79.098 248.889-248.912l-0.051-237.037zM784.594 639.056c-0.006-9.429-3.749-18.471-10.416-25.139s-15.713-10.415-25.139-10.417h-474.075c-9.43 0-18.474 3.746-25.141 10.414s-10.414 15.712-10.414 25.141c0 9.43 3.746 18.474 10.414 25.141s15.712 10.414 25.141 10.414h474.075c9.426-0.003 18.472-3.75 25.139-10.417s10.411-15.709 10.416-25.139zM689.778 402.018c0-9.429-3.749-18.474-10.416-25.141s-15.707-10.411-25.139-10.416h-284.443c-9.43 0-18.474 3.749-25.141 10.416s-10.414 15.711-10.414 25.141c0 9.43 3.746 18.474 10.414 25.141s15.712 10.414 25.141 10.414h284.443c9.432-0.002 18.472-3.75 25.139-10.417s10.416-15.709 10.416-25.139z" />
<glyph unicode="&#xe911;" glyph-name="sorting" horiz-adv-x="1451" d="M540.444 106.667h-426.667c-42.666 0-71.111 28.444-71.111 71.111s28.444 71.112 71.111 71.112h426.667c42.667 0 71.112-28.445 71.112-71.112s-28.445-71.111-71.112-71.111zM753.777 462.223h-640c-42.666 0-71.111 28.444-71.111 71.111s28.444 71.111 71.111 71.111h640c42.667 0 71.112-28.444 71.112-71.111s-28.445-71.111-71.112-71.111zM1109.333-35.558c-42.667 0-71.108 28.45-71.108 71.117v568.886c0 42.667 28.442 71.112 71.108 71.112s71.108-28.445 71.108-71.112v-568.886c0-42.667-28.442-71.117-71.108-71.117zM1109.333-35.558c-21.333 0-35.558 7.117-49.775 21.333l-213.336 213.336c-28.445 28.445-28.445 71.112 0 99.556s71.111 28.444 99.552 0l163.558-163.556 163.558 163.556c28.442 28.444 71.108 28.444 99.55 0 28.45-28.444 28.45-71.111 0-99.556l-213.333-213.336c-14.217-14.217-28.442-21.333-49.775-21.333zM967.108 817.777h-853.331c-42.666 0-71.111 28.445-71.111 71.111s28.444 71.111 71.111 71.111h853.331c42.667 0 71.117-28.444 71.117-71.111s-28.45-71.111-71.117-71.111z" />
<glyph unicode="&#xe912;" glyph-name="text" d="M30 731.53c16.568 0 30 13.432 30 30v138.47h138.47c16.568 0 30 13.432 30 30s-13.432 30-30 30h-168.47c-16.568 0-30-13.432-30-30v-168.47c0-16.57 13.432-30 30-30zM994.002 960h-168.471c-16.572 0-30.003-13.432-30.003-30s13.431-30 30.003-30h138.468v-138.47c0-16.568 13.431-30 30.003-30 16.566 0 29.998 13.432 29.998 30v168.47c0 16.568-13.431 30-29.998 30zM994.002 164.471c-16.572 0-30.003-13.431-30.003-30.003v-138.468h-138.468c-16.572 0-30.003-13.431-30.003-30.003 0-16.566 13.431-29.998 30.003-29.998h168.471c16.566 0 29.998 13.431 29.998 29.998v168.471c0 16.572-13.431 30.003-29.998 30.003zM198.47-3.999h-138.47v138.468c0 16.572-13.432 30.003-30 30.003s-30-13.431-30-30.003v-168.471c0-16.566 13.432-29.998 30-29.998h168.47c16.568 0 30 13.431 30 29.998 0 16.572-13.43 30.003-30 30.003zM839.322 577.24v189.46c0 9.4-7.623 17.020-17.044 17.020h-620.558c-9.42 0-17.040-7.62-17.040-17.020v-189.46c0-9.42 7.62-17.040 17.040-17.040h90.48c9.4 0 17.020 7.62 17.020 17.040v64.9c0 9.42 7.64 17.040 17.040 17.040h106.42c9.42 0 17.040-7.62 17.040-17.040v-468.282c0-9.421-7.62-17.038-17.040-17.038h-46.54c-9.42 0-17.040-7.617-17.040-17.038v-90.482c0-9.398 7.62-17.021 17.040-17.021h251.721c9.421 0 17.038 7.623 17.038 17.021v90.482c0 9.421-7.617 17.038-17.038 17.038h-46.541c-9.421 0-17.038 7.617-17.038 17.038v468.282c0 9.42 7.617 17.040 17.038 17.040h106.422c9.398 0 17.038-7.62 17.038-17.040v-64.9c0-9.42 7.617-17.040 17.021-17.040h90.476c9.421 0 17.044 7.62 17.044 17.040z" />
<glyph unicode="&#xe913;" glyph-name="arrow-dropdown" horiz-adv-x="1792" d="M896.004 15.996c-18.413 0-36.845 7.037-50.903 21.096l-720 720c-28.134 28.133-28.134 73.692 0 101.808s73.692 28.134 101.808 0l669.096-669.096 669.091 669.096c28.134 28.134 73.702 28.134 101.811 0 28.122-28.133 28.134-73.692 0-101.808l-719.997-720c-14.058-14.058-32.49-21.096-50.904-21.096z" />
<glyph unicode="&#xe914;" glyph-name="arrow-preview" horiz-adv-x="832" d="M813.254 493.255c24.992-24.994 24.992-65.516 0-90.51l-407.293-407.295c-24.994-24.992-65.516-24.992-90.51 0-24.993 24.998-24.993 65.517 0 90.509l362.040 362.042-362.040 362.038c-24.993 24.994-24.993 65.516 0 90.51s65.516 24.994 90.51 0l407.293-407.293zM0 512h768v-128h-768v128z" />
<glyph unicode="&#xe915;" glyph-name="breadcrum" horiz-adv-x="512" d="M512 448.003c0-10.912-4.17-21.834-12.501-30.165l-426.667-426.669c-16.672-16.666-43.669-16.666-60.331 0-16.661 16.674-16.672 43.674 0 60.331l396.501 396.504-396.501 396.501c-16.672 16.672-16.672 43.67 0 60.331s43.669 16.672 60.331 0l426.667-426.667c8.331-8.33 12.501-19.253 12.501-30.165z" />
<glyph unicode="&#xe916;" glyph-name="cloud-download" horiz-adv-x="1265" d="M1037.794 585.577c-16.444 209.212-191.958 374.423-405.323 374.423-182.513 0-339.185-118.543-389.737-291.433-144.203-50.056-242.733-186.669-242.733-341.037 0-199.27 162.138-361.412 361.412-361.412h587.294c174.381 0 316.235 141.854 316.235 316.235 0 142.261-93.515 264.373-227.147 303.224zM845.119 340.763l-180.706-180.706c-8.812-8.806-20.378-13.234-31.943-13.234s-23.13 4.427-31.94 13.234l-180.706 180.706c-12.92 12.92-16.806 32.349-9.803 49.245 7.002 16.851 23.492 27.874 41.743 27.874h90.353v180.706c0 49.875 40.478 90.353 90.353 90.353s90.353-40.478 90.353-90.353v-180.706h90.353c18.251 0 34.738-11.023 41.743-27.874 6.999-16.896 3.12-36.325-9.8-49.245z" />
<glyph unicode="&#xe917;" glyph-name="compress" horiz-adv-x="1075" d="M34.39 72.079l208.066 208.041-86.368 86.364c-18.818 18.816-5.52 51.21 21.21 51.21h300.001c16.582 0 30-13.414 30-29.998v-300.001c0-26.65-32.316-40.105-51.21-21.212l-86.396 86.339-208.009-208.036c-11.712-11.709-30.704-11.715-42.42-0.005l-84.874 84.874c-11.664 11.668-11.76 30.664 0 42.424zM619.11 829.513l86.369-86.368 208.036 208.067c11.715 11.712 30.7 11.724 42.424 0l84.874-84.872c11.735-11.736 11.684-30.764 0-42.452l-208.072-208.009 86.369-86.368c18.816-18.816 5.519-51.21-21.212-51.21h-299.996c-16.584 0-30.003 13.418-30.003 30.002v300.001c0 26.566 32.241 40.18 51.21 21.21z" />
<glyph unicode="&#xe918;" glyph-name="contact" d="M903.111 945.778h-711.111c-18.86 0-36.947-7.492-50.283-20.828s-20.828-31.423-20.828-50.283v-71.111h-35.556c-9.43 0-18.474-3.746-25.141-10.414s-10.414-15.712-10.414-25.141c0-9.43 3.746-18.474 10.414-25.141s15.712-10.414 25.141-10.414h35.556v-248.889h-35.556c-9.43 0-18.474-3.746-25.141-10.414s-10.414-15.712-10.414-25.141c0-9.43 3.746-18.474 10.414-25.141s15.712-10.414 25.141-10.414h35.556v-248.889h-35.556c-9.43 0-18.474-3.743-25.141-10.416-6.668-6.667-10.414-15.707-10.414-25.139s3.746-18.472 10.414-25.139c6.668-6.673 15.712-10.416 25.141-10.416h35.556v-71.111c0-18.859 7.492-36.949 20.828-50.284s31.423-20.827 50.283-20.827h711.111c18.859 0 36.949 7.492 50.284 20.827s20.827 31.425 20.827 50.284v853.333c0 18.86-7.492 36.947-20.827 50.283s-31.425 20.828-50.284 20.828zM192 21.333v71.111h35.556c9.43 0 18.474 3.743 25.141 10.416 6.668 6.667 10.414 15.707 10.414 25.139s-3.746 18.472-10.414 25.139c-6.668 6.673-15.712 10.416-25.141 10.416h-35.556v248.889h35.556c9.43 0 18.474 3.746 25.141 10.414s10.414 15.712 10.414 25.141c0 9.43-3.746 18.474-10.414 25.141s-15.712 10.414-25.141 10.414h-35.556v248.889h35.556c9.43 0 18.474 3.746 25.141 10.414s10.414 15.712 10.414 25.141c0 9.43-3.746 18.474-10.414 25.141s-15.712 10.414-25.141 10.414h-35.556v71.111h711.111v-853.333h-711.111zM547.556 465.778c28.132 0 55.626 8.341 79.013 23.969s41.62 37.84 52.383 63.827c10.763 25.988 13.579 54.584 8.095 82.173-5.49 27.588-19.035 52.93-38.923 72.82-19.894 19.89-45.232 33.435-72.823 38.923-27.587 5.488-56.183 2.672-82.171-8.093s-48.2-28.993-63.827-52.382c-15.628-23.389-23.969-50.886-23.969-79.015 0-37.72 14.984-73.895 41.656-100.566s62.847-41.656 100.566-41.656zM547.556 679.111c14.065 0 27.813-4.171 39.509-11.984 11.691-7.814 20.804-18.92 26.192-31.914 5.382-12.993 6.787-27.292 4.045-41.086s-9.518-26.465-19.462-36.41c-9.944-9.945-22.619-16.718-36.411-19.462-13.794-2.744-28.092-1.336-41.086 4.047s-24.1 14.497-31.914 26.191c-7.814 11.694-11.984 25.442-11.984 39.507 0 18.86 7.492 36.947 20.828 50.283s31.423 20.828 50.283 20.828v0zM654.222 430.222h-213.333c-28.29 0-55.421-11.238-75.425-31.242s-31.242-47.134-31.242-75.425v-106.667c0-18.859 7.492-36.949 20.828-50.284s31.423-20.827 50.283-20.827h284.444c18.859 0 36.949 7.492 50.284 20.827s20.827 31.425 20.827 50.284v106.667c0 28.291-11.236 55.421-31.243 75.425-20.002 20.004-47.132 31.242-75.423 31.242zM689.778 216.889h-284.444v106.667c0 9.432 3.746 18.472 10.414 25.139 6.668 6.673 15.712 10.416 25.141 10.416h213.333c9.432 0 18.472-3.743 25.139-10.416 6.673-6.667 10.416-15.707 10.416-25.139v-106.667z" />
<glyph unicode="&#xe919;" glyph-name="copy" horiz-adv-x="967" d="M398.222 917.333c-70.692 0-128-57.308-128-128v-128h-128c-70.692 0-128-57.308-128-128v-426.667c0-70.696 57.308-128 128-128h426.667c70.696 0 128 57.304 128 128v128h128c70.696 0 128 57.304 128 128v426.667c0 70.692-57.304 128-128 128h-426.667zM696.889 320v213.333c0 70.692-57.304 128-128 128h-213.333v128c0 23.564 19.103 42.667 42.667 42.667h426.667c23.563 0 42.667-19.103 42.667-42.667v-426.667c0-23.563-19.103-42.667-42.667-42.667h-128zM99.556 533.333c0 23.564 19.103 42.667 42.667 42.667h426.667c23.563 0 42.667-19.103 42.667-42.667v-426.667c0-23.563-19.103-42.667-42.667-42.667h-426.667c-23.564 0-42.667 19.103-42.667 42.667v426.667z" />
<glyph unicode="&#xe91a;" glyph-name="copy-fill" horiz-adv-x="1081" d="M759.871 777.144h-621.712c-60.593 0-109.714-49.121-109.714-109.714v-621.714c0-60.592 49.121-109.716 109.714-109.716h621.712c60.592 0 109.716 49.124 109.716 109.716v621.714c0 60.593-49.124 109.714-109.716 109.714zM942.729 960h-658.284c-60.266 0.002-109.251-48.609-109.714-108.872 0-0.294 0-0.548 0-0.842h585.145c100.938-0.12 182.733-81.917 182.852-182.856v-585.145c0.296 0 0.552 0 0.842 0 60.268 0.466 108.874 49.454 108.874 109.716v658.286c0 60.594-49.124 109.714-109.716 109.714z" />
<glyph unicode="&#xe91b;" glyph-name="cross" d="M24.714-39.287c3.302-3.305 7.224-5.928 11.54-7.714 4.316-1.792 8.943-2.714 13.616-2.714s9.299 0.922 13.616 2.714c4.316 1.786 8.238 4.409 11.54 7.714l436.978 436.979 437.154-436.979c6.673-6.673 15.724-10.416 25.156-10.416 9.438 0 18.483 3.743 25.156 10.416s10.422 15.724 10.422 25.156c0 9.438-3.749 18.483-10.422 25.156l-437.155 436.977 436.979 437.156c6.673 6.671 10.416 15.72 10.416 25.155s-3.743 18.484-10.416 25.156c-6.673 6.672-15.724 10.42-25.156 10.42-9.438 0-18.483-3.748-25.156-10.42l-436.977-437.155-437.156 436.978c-6.802 5.825-15.551 8.869-24.5 8.523s-17.437-4.055-23.769-10.388c-6.332-6.332-10.042-14.821-10.388-23.769s2.698-17.698 8.523-24.5l436.978-437.156-436.978-437.154c-6.622-6.662-10.339-15.673-10.339-25.071 0-9.392 3.717-18.404 10.339-25.065z" />
<glyph unicode="&#xe91c;" glyph-name="delete" horiz-adv-x="819" d="M239.202 931.557c0.002 7.533 2.994 14.757 8.319 20.085s12.548 8.324 20.081 8.329l283.981 0.016c7.537-0.017 14.756-3.022 20.081-8.354s8.315-12.558 8.32-20.092v-70.234h-340.782v70.25zM706.125-23.327c-0.727-11.075-5.658-21.453-13.783-29.015-8.125-7.557-18.831-11.725-29.932-11.648h-508.9c-11.095 0.031-21.768 4.26-29.875 11.832s-13.049 17.935-13.833 29l-43.548 637.037h686.35l-46.469-637.201-0.010-0.005zM819.261 671.576h-819.318v66c0.012 17.505 6.97 34.289 19.346 46.668s29.159 19.34 46.664 19.356l687.29 0.022c17.5-0.027 34.278-6.994 46.653-19.375 12.37-12.38 19.328-29.162 19.343-46.665v-66l0.020-0.006zM277.68 87.875c0-3.789 0.746-7.542 2.196-11.039 1.449-3.502 3.574-6.682 6.253-9.359s5.858-4.803 9.357-6.252c3.5-1.449 7.25-2.196 11.038-2.196s7.539 0.748 11.038 2.196c3.5 1.449 6.679 3.574 9.358 6.252s4.803 5.857 6.253 9.359c1.449 3.497 2.195 7.25 2.195 11.039v404.493c-0.060 7.607-3.124 14.882-8.524 20.241s-12.698 8.367-20.305 8.369c-7.607 0.003-14.907-3-20.311-8.355s-8.472-12.627-8.538-20.235v-404.513h-0.010zM483.48 87.875c0-7.654 3.040-14.991 8.45-20.398 5.41-5.412 12.748-8.453 20.399-8.453 7.649 0 14.986 3.041 20.398 8.453 5.412 5.407 8.448 12.744 8.448 20.398v404.493c-0.056 7.608-3.123 14.884-8.525 20.243-5.396 5.36-12.698 8.368-20.306 8.371s-14.91-3.001-20.314-8.356c-5.404-5.356-8.473-12.63-8.539-20.238l-0.010-404.513z" />
<glyph unicode="&#xe91d;" glyph-name="delete2" horiz-adv-x="768" d="M682.665 661.338c-11.315 0-22.164-4.495-30.167-12.497s-12.498-18.854-12.498-30.17v-477.482c-1.224-21.576-10.926-41.795-26.988-56.253-16.061-14.454-37.187-21.98-58.772-20.931h-340.48c-21.585-1.050-42.71 6.477-58.773 20.931-16.063 14.459-25.763 34.678-26.987 56.253v477.482c0 11.316-4.495 22.168-12.497 30.17s-18.854 12.497-30.17 12.497c-11.316 0-22.169-4.495-30.17-12.497s-12.497-18.854-12.497-30.17v-477.482c1.218-44.211 19.907-86.139 51.976-116.603 32.068-30.459 74.901-46.971 119.118-45.916h340.48c44.216-1.055 87.050 15.457 119.117 45.916 32.067 30.464 50.76 72.392 51.978 116.603v477.482c0 11.316-4.495 22.168-12.498 30.17s-18.857 12.497-30.172 12.497zM725.335 789.338h-170.67v85.333c0 11.316-4.495 22.169-12.493 30.17-8.003 8.002-18.857 12.497-30.172 12.497h-256c-11.316 0-22.169-4.495-30.17-12.497s-12.496-18.854-12.496-30.17v-85.333h-170.667c-11.316 0-22.168-4.495-30.17-12.497s-12.497-18.854-12.497-30.17c0-11.316 4.495-22.168 12.497-30.17s18.854-12.497 30.17-12.497h682.668c11.315 0 22.164 4.495 30.167 12.497s12.498 18.854 12.498 30.17c0 11.316-4.495 22.169-12.498 30.17s-18.852 12.497-30.167 12.497zM298.666 789.338v42.666h170.667v-42.666h-170.667zM341.334 234.67v298.668c0 11.316-4.495 22.168-12.497 30.17s-18.854 12.497-30.17 12.497c-11.316 0-22.168-4.495-30.17-12.497s-12.497-18.854-12.497-30.17v-298.668c0-11.315 4.495-22.17 12.497-30.167 8.002-8.003 18.854-12.498 30.17-12.498s22.169 4.495 30.17 12.498c8.002 7.997 12.497 18.852 12.497 30.167zM512 234.67v298.668c0 11.316-4.495 22.168-12.497 30.17s-18.854 12.497-30.17 12.497c-11.316 0-22.169-4.495-30.17-12.497s-12.497-18.854-12.497-30.17v-298.668c0-11.315 4.495-22.17 12.497-30.167 8.002-8.003 18.854-12.498 30.17-12.498s22.168 4.495 30.17 12.498c8.002 7.997 12.497 18.852 12.497 30.167z" />
<glyph unicode="&#xe91e;" glyph-name="download" horiz-adv-x="1084" d="M993.888 66.506h-903.531c-13.313 0-26.080-5.289-35.494-14.703s-14.702-22.179-14.702-35.491c0-13.318 5.288-26.082 14.702-35.497s22.181-14.703 35.494-14.703h903.531c13.312 0 26.082 5.289 35.491 14.703 9.415 9.415 14.703 22.179 14.703 35.497 0 13.312-5.289 26.076-14.703 35.491-9.409 9.415-22.179 14.703-35.491 14.703zM542.122 919.838c-13.313 0-26.080-5.288-35.494-14.702s-14.702-22.181-14.702-35.494v-531.578l-165.145 165.648c-9.452 9.452-22.272 14.762-35.639 14.762s-26.187-5.31-35.639-14.762c-9.452-9.452-14.762-22.272-14.762-35.639s5.31-26.187 14.762-35.639l250.98-250.981c4.666-4.704 10.218-8.439 16.335-10.987s12.678-3.861 19.304-3.861c6.626 0 13.187 1.313 19.304 3.861s11.669 6.283 16.335 10.987l250.979 250.981c4.68 4.68 8.391 10.236 10.927 16.351 2.53 6.115 3.837 12.669 3.837 19.288s-1.307 13.173-3.837 19.288c-2.536 6.115-6.246 11.671-10.927 16.351s-10.234 8.393-16.348 10.925c-6.12 2.533-12.674 3.836-19.293 3.836-6.614 0-13.167-1.303-19.287-3.836-6.114-2.533-11.668-6.245-16.348-10.925l-165.146-165.648v531.578c0 13.313-5.289 26.080-14.702 35.494s-22.181 14.702-35.494 14.702z" />
<glyph unicode="&#xe91f;" glyph-name="edit-fill" horiz-adv-x="1081" d="M665.19 787.441l208.304-208.303-527.274-527.278-208.187 208.304 527.156 527.276zM1031.561 837.678l-92.894 92.896c-35.903 35.901-94.197 35.901-130.224 0l-88.98-88.985 208.304-208.305 103.794 103.797c27.847 27.847 27.847 72.752 0 100.597zM29.024-32.62c-3.791-17.061 11.613-32.353 28.675-28.2l232.121 56.28-208.187 208.299-52.61-236.379z" />
<glyph unicode="&#xe920;" glyph-name="filter" d="M958.293 797.012h-94.965c-10.633 32.443-31.243 60.698-58.886 80.731-27.648 20.033-60.917 30.819-95.056 30.819s-67.408-10.786-95.050-30.819c-27.648-20.033-48.256-48.288-58.887-80.731h-489.742c-13.673 0-26.787-5.432-36.455-15.1s-15.1-22.782-15.1-36.456c0-13.673 5.432-26.787 15.1-36.455s22.782-15.101 36.455-15.101h489.742c10.631-32.443 31.239-60.698 58.887-80.731 27.642-20.033 60.911-30.819 95.050-30.819s67.408 10.786 95.056 30.819c27.642 20.033 48.253 48.288 58.886 80.731h94.965c13.676 0 26.789 5.432 36.454 15.101 9.671 9.668 15.104 22.782 15.104 36.455s-5.433 26.787-15.104 36.456c-9.665 9.668-22.778 15.1-36.454 15.1zM709.404 685.439c-11.884-0.007-23.506 3.511-33.394 10.11-9.882 6.598-17.59 15.98-22.147 26.96-4.551 10.979-5.746 23.062-3.43 34.72s8.033 22.369 16.435 30.776c8.402 8.407 19.109 14.133 30.766 16.455s23.74 1.134 34.725-3.413c10.98-4.547 20.366-12.249 26.971-22.131s10.132-21.502 10.132-33.388c-0.023-15.924-6.354-31.192-17.613-42.456-11.253-11.263-26.516-17.604-42.445-17.633zM958.293 499.483h-489.741c-10.631 32.443-31.24 60.698-58.885 80.731s-60.913 30.82-95.053 30.82c-34.14 0-67.408-10.787-95.053-30.82s-48.254-48.288-58.885-80.731h-94.969c-13.673 0-26.787-5.432-36.455-15.1s-15.1-22.782-15.1-36.456c0-13.673 5.432-26.787 15.1-36.456s22.782-15.1 36.455-15.1h94.969c10.631-32.443 31.24-60.699 58.885-80.73 27.645-20.036 60.913-30.822 95.053-30.822s67.408 10.786 95.053 30.822c27.645 20.031 48.254 48.287 58.885 80.73h489.741c13.676 0 26.789 5.432 36.454 15.1 9.671 9.669 15.104 22.782 15.104 36.456s-5.433 26.787-15.104 36.456c-9.665 9.668-22.778 15.1-36.454 15.1zM314.739 387.908c-11.89-0.028-23.522 3.474-33.422 10.060s-17.624 15.96-22.194 26.937c-4.57 10.977-5.78 23.063-3.478 34.729s8.014 22.385 16.412 30.803c8.398 8.418 19.104 14.155 30.764 16.485s23.749 1.149 34.737-3.395c10.988-4.544 20.381-12.246 26.99-22.13s10.137-21.508 10.137-33.398c-0.019-15.931-6.356-31.204-17.62-42.469s-26.538-17.599-42.469-17.622h0.142zM958.293 201.99h-94.965c-10.633 32.444-31.243 60.7-58.886 80.731-27.648 20.031-60.917 30.822-95.056 30.822s-67.408-10.792-95.050-30.822c-27.648-20.031-48.256-48.287-58.887-80.731h-489.742c-13.673 0-26.787-5.433-36.455-15.098-9.669-9.671-15.1-22.784-15.1-36.454 0-13.676 5.432-26.789 15.1-36.46 9.669-9.665 22.782-15.098 36.455-15.098h489.742c10.631-32.444 31.239-60.7 58.887-80.731 27.642-20.031 60.911-30.817 95.050-30.817s67.408 10.786 95.056 30.817c27.642 20.031 48.253 48.287 58.886 80.731h94.965c13.676 0 26.789 5.433 36.454 15.098 9.671 9.671 15.104 22.784 15.104 36.46 0 13.67-5.433 26.783-15.104 36.454-9.665 9.665-22.778 15.098-36.454 15.098zM709.404 90.419c-11.884-0.011-23.506 3.51-33.394 10.109s-17.596 15.986-22.147 26.965c-4.551 10.98-5.746 23.068-3.43 34.725 2.321 11.662 8.044 22.369 16.447 30.777 8.408 8.402 19.115 14.131 30.777 16.447 11.657 2.315 23.745 1.126 34.725-3.43 10.98-4.551 20.366-12.26 26.965-22.147s10.121-21.51 10.115-33.394c-0.028-15.918-6.366-31.181-17.624-42.433-11.253-11.258-26.516-17.59-42.433-17.618z" />
<glyph unicode="&#xe921;" glyph-name="view" d="M914.56 486.784c-9.067 10.688-18.709 20.672-27.925 29.781-53.547 52.779-111.019 96.832-174.592 129.664-45.483 23.531-90.155 38.997-133.312 46.72-26.069 4.672-49.963 5.973-71.019 5.973-21.995 0-46.4-1.131-72.384-5.973-43.691-8.021-88.341-23.531-133.355-46.72-61.76-31.787-119.637-75.52-174.549-129.664-10.645-10.453-19.797-20.096-27.968-29.781-18.859-22.379-18.859-51.84 0-74.219 22.379-26.645 52.309-54.4 89.835-84.288 79.808-63.573 157.995-103.936 234.581-120.555 26.965-5.76 54.976-8.213 83.861-8.213 27.925 0 55.509 2.453 82.475 8.213 77.461 16.704 155.84 56.811 235.499 120.555 39.936 31.979 69.056 60.48 88.875 84.288 19.115 22.955 19.307 51.456-0.021 74.219v0zM876.096 445.547c-20.139-24.725-48.021-50.347-82.475-77.888-72.299-57.707-143.339-95.211-213.973-109.973-26.069-5.397-49.92-7.339-71.936-7.339h-1.387c-22.485 0-45.867 2.048-71.019 7.339-69.739 14.848-141.419 51.456-214.912 109.973-34.603 27.584-61.803 53.611-81.515 77.888-3.2 2.304-3.2 5.056 0 8.256 2.283 3.2 6.293 7.915 11.883 13.739 5.867 6.059 10.133 10.539 12.416 13.312 53.12 52.203 107.435 91.584 162.197 119.083 43.776 21.995 83.435 36.565 119.125 42.624 20.608 3.541 41.707 5.483 63.232 5.483 20.629 0 41.237-1.707 62.763-5.483 36.224-6.315 75.947-20.8 119.125-42.624 55.787-28.117 109.483-67.349 161.28-119.083 11.947-11.947 20.331-20.949 25.216-27.072 2.453-3.029 2.261-5.931-0.021-8.235v0zM507.733 610.496c-44.416 0-82.944-15.552-114.539-47.189-31.637-31.595-47.189-69.632-47.189-114.069s15.467-82.155 47.189-113.643c31.509-31.253 70.123-46.72 114.539-46.72 44.437 0 82.005 15.552 113.173 46.72 31.595 31.637 47.189 69.205 47.189 113.643s-15.701 82.368-47.189 114.069c-31.275 31.488-68.736 47.189-113.173 47.189v0zM585.131 371.328c-21.525-21.525-47.189-32.064-77.419-32.064-30.72 0-56.832 11.029-78.379 32.555-21.525 21.525-32.491 47.637-32.491 77.419 0 30.699 10.987 56.363 32.491 77.888 21.525 21.525 47.637 32.555 78.379 32.555 30.699 0 56.235-11.115 77.419-32.555 21.44-21.675 32.064-47.189 32.064-77.888 0.021-30.229-10.517-56.384-32.064-77.909v0z" />
<glyph unicode="&#xe922;" glyph-name="face-detect" horiz-adv-x="1069" d="M66.783 781.913v133.565h133.565c5.904 0 11.566 2.345 15.741 6.52s6.52 9.837 6.52 15.741c0 5.904-2.345 11.566-6.52 15.741s-9.837 6.52-15.741 6.52h-155.826c-5.904 0-11.566-2.345-15.741-6.52s-6.52-9.837-6.52-15.741v-155.826c0-5.904 2.345-11.566 6.52-15.741s9.837-6.52 15.741-6.52c5.904 0 11.566 2.345 15.741 6.52s6.52 9.837 6.52 15.741zM868.174 915.478h133.565v-133.565c0-5.904 2.346-11.566 6.518-15.741 4.176-4.175 9.839-6.52 15.743-6.52s11.567 2.345 15.743 6.52c4.172 4.174 6.518 9.837 6.518 15.741v155.826c0 5.904-2.346 11.566-6.518 15.741-4.176 4.175-9.839 6.52-15.743 6.52h-155.826c-5.904 0-11.567-2.345-15.743-6.52-4.172-4.175-6.518-9.837-6.518-15.741s2.346-11.566 6.518-15.741c4.176-4.175 9.839-6.52 15.743-6.52zM200.348-19.478h-133.565v133.565c0 5.904-2.345 11.567-6.52 15.743-4.174 4.172-9.837 6.518-15.741 6.518s-11.566-2.346-15.741-6.518c-4.175-4.176-6.52-9.839-6.52-15.743v-155.826c0-5.904 2.345-11.567 6.52-15.743 4.175-4.172 9.837-6.518 15.741-6.518h155.826c5.904 0 11.566 2.346 15.741 6.518 4.175 4.176 6.52 9.839 6.52 15.743s-2.345 11.567-6.52 15.743c-4.174 4.172-9.837 6.518-15.741 6.518zM1001.739 114.087v-133.565h-133.565c-5.904 0-11.567-2.346-15.743-6.518-4.172-4.176-6.518-9.839-6.518-15.743s2.346-11.567 6.518-15.743c4.176-4.172 9.839-6.518 15.743-6.518h155.826c5.904 0 11.567 2.346 15.743 6.518 4.172 4.176 6.518 9.839 6.518 15.743v155.826c0 5.904-2.346 11.567-6.518 15.743-4.176 4.172-9.839 6.518-15.743 6.518s-11.567-2.346-15.743-6.518c-4.172-4.176-6.518-9.839-6.518-15.743zM1046.261 403.478h-279.597l8.014 44.522c22.47-1.353 44.615 5.855 61.988 20.168 17.372 14.318 28.672 34.682 31.637 56.997 2.961 22.314-2.64 44.922-15.672 63.275-13.036 18.353-32.536 31.088-54.579 35.643-15.583 234.852-311.652 336.139-467.478 152.264-35.915-43.031-57.269-96.338-60.995-152.264-21.868-4.615-41.2-17.285-54.159-35.494s-18.597-40.625-15.794-62.798c2.804-22.174 13.842-42.481 30.925-56.893s38.96-21.869 61.289-20.899l8.014-44.522h-277.593c-5.904 0-11.566-2.346-15.741-6.518-4.175-4.176-6.52-9.839-6.52-15.743s2.345-11.567 6.52-15.743c4.175-4.172 9.837-6.518 15.741-6.518h290.95c15.691-44.633 44.569-83.447 82.81-111.304-12.021-50.087-51.645-155.826-173.412-155.826-5.904 0-11.566-2.346-15.741-6.518-4.175-4.176-6.52-9.839-6.52-15.743s2.345-11.567 6.52-15.743c4.175-4.172 9.837-6.518 15.741-6.518 121.322 0 187.882 87.040 213.259 178.087 30.862-14.189 64.427-21.54 98.393-21.54s67.531 7.351 98.393 21.54c25.377-90.379 91.937-178.087 213.259-178.087 5.904 0 11.567 2.346 15.743 6.518 4.172 4.176 6.518 9.839 6.518 15.743s-2.346 11.567-6.518 15.743c-4.176 4.172-9.839 6.518-15.743 6.518-121.767 0-161.391 106.184-173.412 155.826 38.244 27.902 67.183 66.694 83.033 111.304h290.727c5.904 0 11.567 2.346 15.743 6.518 4.172 4.176 6.518 9.839 6.518 15.743s-2.346 11.567-6.518 15.743c-4.176 4.172-9.839 6.518-15.743 6.518zM782.692 492.522c15.137 85.037 12.243 66.783 14.247 84.814 8.913-4.072 16.233-10.97 20.827-19.625 4.59-8.655 6.202-18.583 4.577-28.246-1.621-9.663-6.389-18.52-13.557-25.198-7.168-6.683-16.339-10.81-26.094-11.745zM270.692 577.336c3.592-28.512 8.644-56.82 15.137-84.814-9.92 0.761-19.298 4.826-26.638 11.544-7.34 6.714-12.22 15.695-13.86 25.508s0.055 19.892 4.813 28.63c4.758 8.738 12.305 15.63 21.438 19.577l-0.89-0.445zM346.824 403.478l-29.162 163.172c-5.704 31.656-4.372 64.18 3.898 95.264s23.28 59.969 43.963 84.604c144.918 172.967 424.515 39.624 385.336-179.868l-29.162-163.172c-0.445-1.336-374.65 0-374.873 0zM361.071 358.957h346.379c-15.28-33.075-39.704-61.079-70.398-80.709-30.689-19.63-66.36-30.061-102.792-30.061s-72.103 10.431-102.792 30.061c-30.691 19.63-55.119 47.634-70.397 80.709z" />
<glyph unicode="&#xe923;" glyph-name="text-detect" d="M39.385 251.076c21.751 0 39.384-17.634 39.384-39.386v-157.538c0-21.751 17.633-39.381 39.385-39.381h157.539c21.751 0 39.385-17.634 39.385-39.386s-17.633-39.386-39.385-39.386h-157.539c-65.254 0-118.154 52.898-118.154 118.153v157.538c0 21.751 17.633 39.386 39.385 39.386zM984.614 251.076c21.751 0 39.386-17.634 39.386-39.386v-157.538c0-65.254-52.898-118.153-118.153-118.153h-157.538c-21.751 0-39.386 17.634-39.386 39.386s17.634 39.386 39.386 39.386h157.538c21.751 0 39.381 17.63 39.381 39.381v157.538c0 21.751 17.634 39.386 39.386 39.386zM708.924 920.615c0 21.751 17.634 39.385 39.386 39.385h157.538c65.254 0 118.153-52.9 118.153-118.154v-157.539c0-21.751-17.634-39.385-39.386-39.385s-39.386 17.633-39.386 39.385v157.539c0 21.752-17.63 39.385-39.381 39.385h-157.538c-21.751 0-39.386 17.633-39.386 39.384zM118.154 881.231c-21.751 0-39.385-17.633-39.385-39.385v-157.539c0-21.751-17.633-39.385-39.384-39.385s-39.385 17.633-39.385 39.385v157.539c0 65.254 52.899 118.154 118.154 118.154h157.539c21.751 0 39.385-17.633 39.385-39.385s-17.633-39.384-39.385-39.384h-157.539zM512 723.692c21.751 0 39.386-17.633 39.386-39.385v-525.127c0-21.751-17.634-39.386-39.386-39.386s-39.386 17.634-39.386 39.386v525.127c0 21.751 17.634 39.385 39.386 39.385zM288.82 684.308c0 21.751 17.633 39.385 39.385 39.385h367.59c21.751 0 39.386-17.633 39.386-39.385s-17.634-39.385-39.386-39.385h-367.59c-21.751 0-39.385 17.633-39.385 39.385z" />
</font>
</defs>
</svg>
